资源搜索:
天天BT交流群
你的位置 : 天天BT > 电影 > 动作片 > [经典动画]阿基拉.Akira.1988.JP.BluRay.1920x1040p.x264.AC3.2Audios-KOOK.[日英双语.中英字幕]

[经典动画]阿基拉.Akira.1988.JP.BluRay.1920x1040p.x264.AC3.2Audios-KOOK.[日英双语.中英字幕]

发布者/来源 很BT电影联盟
发布时间 2017-1-2
标签
资源类型 磁力链接
点击 228
评论 我要吐槽
分享
PS 信息均来自网络或网友上传,不保证有效性,请自行测试!
 
 
 
※※※※※※※ 影片信息 ※※※※※※※
 
◎片   名 Akira
◎译   名 阿基拉/光明战士阿基拉 / 亚基拉 / アキラ
◎年   代 1988
◎国   家 日本
◎类   别 动作 / 科幻 / 动画 / 悬疑 / 奇幻
◎语   言 日语/英语
◎上映日 期 1988-07-16(日本)
◎字   幕 简体字幕/繁体字幕/英文字幕
◎IMDB评分   8.1/10 from 109,895 users
◎视频尺 寸  1920x1040p
◎片   长 124 mins
◎导   演 大友克洋
◎编     剧  大友克洋 / 桥本以藏
◎主   演 岩田光央 / 佐佐木望 / 小山茉美 / 玄田哲章 / 北村弘一 
 
 
 
 
◎简  介
  1988年7月,关东地区使用新型炸弹进行爆破,第三次世界大战即刻爆发。31年后,人类从一片废墟中重建都市,东京湾上建立了巨大城市——新东京。世界仿佛要恢复到以前的繁荣。 
  2019年的一个夜晚,新东京郊外的封闭高速公路上,暴走族团体正在公路上飙车。带头的少年,是一名叫做金田的职业高中学生。 
  突然,街上出现了一位奇怪的矮个子男子,暴走族少年铁雄为躲避车祸连人带车飞出公路。正当金田要拿那位男子问罪之时,军队驾驶直升飞机感到。将那位矮个男子与铁雄一起收押。 
  铁雄进入了一个陌生的地方,这里似乎在从事超能力的研究。而金田则在盘算如何营救铁雄。二人都不知道,他们的未来,因为神秘力量——阿基拉而已经开始了巨大的变化。
 
 
 
 
 
片源:Akira.1988.1080p.BluRay.x264-WaLMaRT.mkv
 
 
General
Unique ID                      : 202445496553129661366234596828564980171 (0x984D959AB37BA5639D325981052481CB)
 
Format                         : Matroska
Format version                 : Version 4 / Version 2
File size                      : 7.64 GiB
Duration                       : 2 h 4 min
Overall bit rate               : 8 793 kb/s
Encoded date                   : UTC 2016-12-30 07:44:53
Writing application            : mkvmerge v9.4.2 ('So High') 64bit
Writing library                : libebml v1.3.4 + libmatroska v1.4.5
Cover                          : Yes
Attachments                    : cover_land.jpg / small_cover.jpg / small_cover_land.jpg / cover.jpg
 
Video
ID                             : 1
Format                         : AVC
Format/Info                    : Advanced Video Codec
Format profile                 : High@L4.1
Format settings, CABAC         : Yes
Format settings, ReFrames      : 4 frames
Codec ID                       : V_MPEG4/ISO/AVC
Duration                       : 2 h 4 min
Bit rate                       : 7 898 kb/s
Width                          : 1 920 pixels
Height                         : 1 040 pixels
Display aspect ratio           : 1.85:1
Frame rate mode                : Constant
Frame rate                     : 23.976 (24000/1001) FPS
Original frame rate            : 23.976 (23976/1000) FPS
Color space                    : YUV
Chroma subsampling             : 4:2:0
Bit depth                      : 8 bits
Scan type                      : Progressive
Bits/(Pixel*Frame)             : 0.165
Stream size                    : 6.86 GiB (90%)
Writing library                : x264 core 142 r2431 ac76440
Encoding settings              : cabac=1 / ref=4 / deblock=1:0:0 / 
Default                        : Yes
Forced                         : No
 
Audio #1
ID                             : 2
Format                         : AC-3
Format/Info                    : Audio Coding 3
Mode extension                 : CM (complete main)
Format settings, Endianness    : Big
Codec ID                       : A_AC3
Duration                       : 2 h 4 min
Bit rate mode                  : Constant
Bit rate                       : 448 kb/s
Channel(s)                     : 6 channels
Channel positions              : Front: L C R, Side: L R, LFE
Sampling rate                  : 48.0 kHz
Frame rate                     : 31.250 FPS (1536 spf)
Compression mode               : Lossy
Stream size                    : 399 MiB (5%)
Title                          : Japanese
Language                       : Japanese
Default                        : Yes
Forced                         : No
 
Audio #2
ID                             : 3
Format                         : AC-3
Format/Info                    : Audio Coding 3
Mode extension                 : CM (complete main)
Format settings, Endianness    : Big
Codec ID                       : A_AC3
Duration                       : 2 h 4 min
Bit rate mode                  : Constant
Bit rate                       : 448 kb/s
Channel(s)                     : 6 channels
Channel positions              : Front: L C R, Side: L R, LFE
Sampling rate                  : 48.0 kHz
Frame rate                     : 31.250 FPS (1536 spf)
Compression mode               : Lossy
Stream size                    : 399 MiB (5%)
Title                          : English
Language                       : English
Default                        : No
Forced                         : No
 
Text #1
ID                             : 4
Format                         : ASS
Codec ID                       : S_TEXT/ASS
Codec ID/Info                  : Advanced Sub Station Alpha
Duration                       : 2 h 0 min
Bit rate                       : 141 b/s
Count of elements              : 1267
Compression mode               : Lossless
Stream size                    : 125 KiB (0%)
Title                          : 简体字幕
Language                       : Chinese
Default                        : Yes
Forced                         : No
 
Text #2
ID                             : 5
Format                         : ASS
Codec ID                       : S_TEXT/ASS
Codec ID/Info                  : Advanced Sub Station Alpha
Duration                       : 2 h 0 min
Bit rate                       : 141 b/s
Count of elements              : 1267
Compression mode               : Lossless
Stream size                    : 125 KiB (0%)
Title                          : 繁体字幕
Language                       : Chinese
Default                        : No
Forced                         : No
 
Text #3
ID                             : 6
Format                         : ASS
Codec ID                       : S_TEXT/ASS
Codec ID/Info                  : Advanced Sub Station Alpha
Duration                       : 1 h 59 min
Bit rate                       : 116 b/s
Count of elements              : 1255
Compression mode               : Lossless
Stream size                    : 102 KiB (0%)
Title                          : 英文字幕
Language                       : English
Default                        : No
Forced                         : No
热门下载:

随机推荐: