资源搜索:
天天BT交流群
你的位置 : 天天BT > 电影 > 剧情片 > 姊妹情色.Fat Girl.2001.FR.CC.#259.BluRay.1280x688p.x264.DTS-KOOK.[中英双字]

姊妹情色.Fat Girl.2001.FR.CC.#259.BluRay.1280x688p.x264.DTS-KOOK.[中英双字]

发布者/来源 很BT电影联盟
发布时间 2016-12-13
标签 情色,2001,1280,264,DTS,中英双字,x264,Girl,200,姊妹情色,88,1
资源类型 磁力链接
点击 4209
评论 我要吐槽
分享
PS 信息均来自网络或网友上传,不保证有效性,请自行测试!
蚂蚁高清网
 
img1.doubanio.com/view/photo/raw/public/p2261042407.jpg



※※※※※※※ 影片信息 ※※※※※※※
◎片   名 à ma soeur! /Fat Girl
◎译   名 姊妹情色/胖女孩
◎年   代 2001
◎国   家 法国/意大利
◎类   别 剧情 / 情色
◎语   言 法语
◎字   幕 中英双字
◎IMDb链接   http://www.imdb.com/title/tt0243255/
◎片   长 86mins
◎导   演 凯瑟琳·布雷亚
◎主   演 Ana?s Reboux 
             罗珊娜·马奎达
             Libero De Rienzo
             Arsinée Khanjian
 
 
◎简  介
  性感美丽的埃琳娜(罗珊娜?马奎达 Roxane Mesquida 饰)和肥胖平凡的安娜福斯(安妮?瑞布 Ana?s Reboux 饰)是一对姐妹,在与家人来法国海滨之城度假期间,姐姐埃琳娜与年轻帅气的意大利小伙弗兰多(利贝罗?德?瑞恩佐 Libero De Rienzo 饰)一见钟情。埃琳娜在父母那打着和妹妹一起出游的幌子却和弗兰多打得火热。姐姐向肥妹妹炫耀着男友送给自己的昂贵戒指,当着肥妹妹的面和男友谈情说爱,打情骂俏,在肥妹妹面前把初夜给了弗兰多,这一切让沉默自卑的安娜福斯内心进行着一场肥胖与情欲的痛苦挣扎,心生嫉妒却只能通过幻想来排解自己的空虚。然而故事却远远没有结束,这时弗兰多的母亲却上门要求她们归还儿子未经允许送出的戒指,情节开始发生了巨大的转折,也许一场悲剧正在上演… 
  该片导演凯瑟琳?布雷亚在2001年获得第54届戛纳电影节“法国文化电台奖?年度法国电影人”的奖项。
 
 
※※※※※※※ 参数信息 ※※※※※※※
 
片源:Fat.Girl.2001.BluRay.Criterion.Collection.720p.DTS.x264-CHD
 
 
 
 
General
Unique ID                      : 232219013031485269414438982490798291645 (0xAEB3C14D45D38052A3558638E17DFABD)
Complete name                  : H:\bt\上传\新建文件夹\姊妹情色.Fat Girl.2001.FR.CC.#259.BluRay.1280x688p.x264.DTS-KOOK.[中英双字].mkv
Format                         : Matroska
Format version                 : Version 4 / Version 2
File size                      : 5.00 GiB
Duration                       : 1 h 26 min
Overall bit rate               : 8 260 kb/s
Encoded date                   : UTC 2016-11-26 11:39:34
Writing application            : mkvmerge v7.7.0 ('Six Voices') 32bit built on Feb 28 2015 23:23:00
Writing library                : libebml v1.3.1 + libmatroska v1.4.2
 
Video
ID                             : 2
Format                         : AVC
Format/Info                    : Advanced Video Codec
Format profile                 : [email protected]
Format settings, CABAC         : Yes
Format settings, ReFrames      : 9 frames
Codec ID                       : V_MPEG4/ISO/AVC
Duration                       : 1 h 26 min
Bit rate                       : 6 755 kb/s
Width                          : 1 280 pixels
Height                         : 688 pixels
Display aspect ratio           : 1.85:1
Frame rate mode                : Constant
Frame rate                     : 23.976 FPS
Color space                    : YUV
Chroma subsampling             : 4:2:0
Bit depth                      : 8 bits
Scan type                      : Progressive
Bits/(Pixel*Frame)             : 0.320
Stream size                    : 4.08 GiB (82%)
Title                          : Fat.Girl.2001.BluRay.Criterion.Collection.720p.DTS.x264-CHD
Writing library                : x264 core 102 r1666 d058f37
Encoding settings              : cabac=1 / ref=9 / deblock=1:-3:-3 / analyse=0x3:0x113 / me=umh / subme=10 / psy=1 / psy_rd=1.05:0.10 / mixed_ref=1 / me_range=32 / chroma_me=1 / trellis=2 / 8x8dct=1 / cqm=2 / deadzone=21,11 / fast_pskip=0 / chroma_qp_offset=-2 / threads=6 / sliced_threads=0 / nr=0 / decimate=1 / interlaced=0 / constrained_intra=0 / bframes=6 / b_pyramid=2 / b_adapt=2 / b_bias=0 / direct=3 / weightb=1 / open_gop=0 / weightp=2 / keyint=250 / keyint_min=25 / scenecut=40 / intra_refresh=0 / rc_lookahead=40 / rc=2pass / mbtree=1 / bitrate=6755 / ratetol=1.0 / qcomp=0.60 / qpmin=10 / qpmax=51 / qpstep=4 / cplxblur=20.0 / qblur=0.5 / vbv_maxrate=50000 / vbv_bufsize=50000 / ip_ratio=1.40 / aq=1:0.80 / nal_hrd=none
Language                       : French
Default                        : No
Forced                         : No
 
Audio
ID                             : 3
Format                         : DTS
Format/Info                    : Digital Theater Systems
Mode                           : 16
Format settings, Endianness    : Big
Codec ID                       : A_DTS
Duration                       : 1 h 26 min
Bit rate mode                  : Constant
Bit rate                       : 1 509 kb/s
Channel(s)                     : 6 channels
Channel positions              : Front: L C R, Side: L R, LFE
Sampling rate                  : 48.0 kHz
Frame rate                     : 93.750 FPS (512 spf)
Bit depth                      : 24 bits
Compression mode               : Lossy
Stream size                    : 935 MiB (18%)
Title                          : Fat.Girl.2001.DTS-HD.MA Core_1509kbps
Language                       : French
Default                        : Yes
Forced                         : No
 
Text
ID                             : 1
Format                         : ASS
Codec ID                       : S_TEXT/ASS
Codec ID/Info                  : Advanced Sub Station Alpha
Duration                       : 1 h 23 min
Bit rate                       : 221 b/s
Count of elements              : 753
Compression mode               : Lossless
Stream size                    : 136 KiB (0%)
Title                          : 中英字幕
Default                        : Yes
Forced                         : No
 
热门下载:

随机推荐: